#TITLE:Mimiga town;
#SUBTITLE:Doukutsu Monogatari;
#ARTIST:Pixel;
#TITLETRANSLIT:;
#SUBTITLETRANSLIT:;
#ARTISTTRANSLIT:;
#CREDIT:;
#BANNER:Mimiga Town-bn.png;
#BACKGROUND:Mimiga Town-bg.png;
#LYRICSPATH:;
#CDTITLE:!exige.png;
#MUSIC:Mimiga Town.mp3;
#OFFSET:-0.078;
#SAMPLESTART:30.014;
#SAMPLELENGTH:20.500;
#SELECTABLE:YES;
#BPMS:0.000=107.100;
#STOPS:;
#BGCHANGES:;
// cache tags:
#FIRSTBEAT:0.000;
#LASTBEAT:120.000;
#SONGFILENAME:Songs/Music V.I.P ^_^/Mimiga Town (Exige)/Mimiga Town.sm;
#HASMUSIC:1;
#HASBANNER:1;
#MUSICLENGTH:76.120;
// end cache tags

//---------------dance-single - ----------------
#NOTES:
     dance-single:
     :
     Hard:
     9:
     0.734,0.670,1.000,0.039,0.145,260.000,128.000,3.000,0.000,0.000:
1001
0001
1001
0001
0011
1010
0101
1100
,
1010
0010
0011
0110
0010
0010
0110
0010
,
0110
0100
1100
0100
0101
0100
1100
0100
,
1010
1000
1000
1000
1000
1000
1100
1000
,
1001
1000
0101
1000
0011
0100
1010
0001
,
1010
0001
0100
0001
0010
1000
0110
0001
,
0110
0001
1010
0001
0110
0001
1010
0001
,
1001
0000
0000
0000
0010
0000
0000
0000
0001
0000
0000
0000
1000
0000
0000
0000
0110
0000
0000
0000
0100
0000
0000
0000
1000
0000
0000
0000
0220
0330
0000
0000
,
0110
0010
0110
0010
0110
0101
0011
0101
,
1010
0001
1010
1100
1000
0010
0110
0001
,
0110
1000
0110
0010
0110
0100
0110
0010
,
1001
0010
0100
1000
0001
1000
0101
1000
,
0011
0010
1100
0001
0110
1000
1001
0001
,
1001
0010
1000
0001
0100
0010
0110
0010
,
0011
1000
0101
0010
1010
0100
0101
0001
,
1001
0000
0110
0000
0012
0000
0010
0000
0010
0000
0010
0000
1000
0000
1000
0003
,
1100
0000
0001
0010
0110
0000
0110
0010
0001
0000
0101
0010
0100
0000
0101
0010
,
0001
0000
0001
0010
0100
0000
0100
0010
0001
0000
0001
0010
0110
0000
0110
0010
,
0110
0000
0010
0100
1000
0000
0011
0001
0010
0000
1001
0100
0010
0000
1001
0010
,
0100
0000
0001
1000
0001
0000
1000
0001
1000
0000
0110
0001
0110
0000
0110
1000
,
0110
0000
0001
1000
0010
0000
0110
0100
0010
0000
0010
0100
0110
0000
0100
0001
,
0110
0000
0010
1000
0010
0000
0100
0010
1001
0000
1100
0000
1001
0000
0011
0000
,
1001
0101
0011
0101
0001
0101
0110
1010
,
1100
1001
0011
1010
1000
1100
1010
0101
,
0011
0110
1100
0011
0010
0110
1100
0011
,
0110
0001
1100
0001
0011
0001
0110
0001
,
1100
0110
0011
1001
0110
0011
0110
1001
,
1100
0101
0011
1001
0110
0011
0110
0011
,
1001
0100
1000
0100
1000
0001
0010
0100
,
1001
0000
1001
0000
1001
0000
1001
1001
,
1001
0000
0000
0000
;
